Főoldal | Regisztráció | Belépés Üdvözöllek Vendég | RSS




  • Oldal 1 / 1
  • 1
Fórum » Tagok feltöltései » Sorozatok » Vizipók csodapók EXTRA DVDRIP. ( 3 epizódba) (Szines magyar rajzfilm 1978 / 3.84 GB)
Vizipók csodapók EXTRA DVDRIP. ( 3 epizódba)
AlFipapaDátum: Szombat, 2021-04-17, 15:43 | Üzenet # 1
Vezér-ezredes
Csoport: Feltöltő
Üzenetek: 82
Állapot: Offline




Szines magyar rajzfilm 1978 / 3.84 GB

Össz méret: 3.84 GB.

A Vízipók-csodapók magyar televíziós rajzfilmsorozat, amelynek főszereplői Vízipók és a Keresztespók. Vízipók otthona a vízalatti Kristálypalota. Legjobb barátaik az algaszedő vízicsigák, Katica, kis hangyák, méhecske, hátonúszó poloska, Nünüke és az ormányosbogár. Kalandjaik során még találkoznak Csíbor bácsival, Rák apóval, kecskebékával, hőscincérrel, tegzesekkel és egyéb lakóival a rovarvilágnak.

Műfaj mese, ismeretterjesztő

Írók - Bálint Ágnes, Kertész György

Rendezők
Szabó Szabolcs
Haui József
Szombati Szabó Csaba

Hang
Pathó István
Harkányi Endre

Főcím Vizipók a csodapók

Zeneszerző Pethő Zsolt











MediaInfo

Complete name : Vizipók-csodapók_1-2-3.mp4
Format : MPEG-4
Format profile : Base Media
Codec ID : isom (isom/iso2/avc1/mp41)
File size : 1.16 GiB
Duration : 57 min 15 s
Overall bit rate : 2 897 kb/s
Writing application : Lavf58.45.100

Video
ID : 1
Format : AVC
Format/Info : Advanced Video Codec
Format profile : High@L3
Format settings : CABAC / 4 Ref Frames
Format settings, CABAC : Yes
Format settings, Reference frames : 4 frames
Codec ID : avc1
Codec ID/Info : Advanced Video Coding
Duration : 57 min 15 s
Bit rate : 2 761 kb/s
Width : 640 pixels
Height : 490 pixels
Display aspect ratio : 4:3
Original display aspect ratio : 4:3
Frame rate mode : Constant
Frame rate : 25.000 FPS
Color space : YUV
Chroma subsampling : 4:2:0
Bit depth : 8 bits
Scan type : Progressive
Bits/(Pixel*Frame) : 0.352
Stream size : 1.10 GiB (95%)
Writing library : x264 core 155 r2917 0a84d98
Encoding settings : cabac=1 /
Codec configuration box : avcC

Audio
ID : 2
Format : AAC LC
Format/Info : Advanced Audio Codec Low Complexity
Codec ID : mp4a-40-2
Duration : 57 min 15 s
Bit rate mode : Constant
Bit rate : 128 kb/s
Channel(s) : 2 channels
Channel layout : L R
Sampling rate : 44.1 kHz
Frame rate : 43.066 FPS (1024 SPF)
Compression mode : Lossy
Stream size : 52.4 MiB (4%)
Default : Yes
Alternate group : 1
Language : Hungary



1.Epizód





2.Epizód







3.Epizód






Halott linkjeimet nem javotom!
 
Fórum » Tagok feltöltései » Sorozatok » Vizipók csodapók EXTRA DVDRIP. ( 3 epizódba) (Szines magyar rajzfilm 1978 / 3.84 GB)
  • Oldal 1 / 1
  • 1
Keresés:

Copyright MyCorp © 2022
Szeretnék ingyenes honlapot a uCoz rendszerben



wgd (2015), medvetalp (2569), harcsa59 (2624), sirfrancis (2636), tusz (2732), mikipapa (3030), Schott (3031), grabacs (7336), xuinm (3838), szekelyjoe (4476), tgz56 (4511), jaszkapitany (4626), sziszko2581 (4851), SZIGO (4929), Ferkó (4974), lumex (5083), varpi (5221), bakter1 (5634), tom74 (5823), buckoka3778 (6131), el_nino (6154), SSaaNNyyII1 (6212), viktorksa (6982), erdo16 (7009), jmos (7270), hosis (7332), ang747 (7541), pgyuri (8368), aboa (9472), Mutykóka (9664), sdkfz (10592), fmisi (10693), jnsvsd51 (25812), qd60 (11783), Echan (11821), mat4267 (12143), Jolán100 (12475), abuczki (13367), soltiferi4906 (13520), jakussz (13709), kenoemi (13721), hidroncs (14507), selmeczimolnaragnes (15097), Gvenda (15147), zsano (15928), pizzasworld (16014), Didkám (16400), matis74 (18051), pedro4210 (18599), Stefano (19007), ogitrew (19256), [Teljes lista]